Skip to main content

The Jauntee Live at Paradise Rock Club on 2013-02-22




01 crowd
02 I wanna love you
03 Let the drummer take one
04 Puppy in my pocket
05 Astral turtle dance
06 Flutterby
07 Blowin up the B line
08 Jaunt's on fire
09 I've got a feeling *

* - with Luke Stratton sitting in on guitar


Collection TheJauntee
Band/Artist The Jauntee
Venue Paradise Rock Club
Location Boston, MA

Source Schoeps MK41/MK22>KC5>CMC6>Sonosax SX-R4 & SB>SX-R4
Lineage WAV>USB>Macbook Pro>Audacity(mixing)>Wave Editor(tracking,fades,resample(izotope)/dither(mbit+)to 16 bit/44.1k)>XAct(FLAC 8,ffp,fix sbe)
Taped by Andy Murray
Transferred by Andy Murray

Notes

The Jauntee
2013-02-22
Paradise Rock Club
Boston, MA

Mics were centered at the soundboard upstairs hung off the shelf

MK22s were 21cm,110 degrees DFC
MK41s were DIN DFC

Source: Schoeps MK22/MK41>KC5>CMC6>Sonosax SX-R4(24bit/96khz) & Sound board>SX-R4

Lineage: WAV>USB>Macbook Pro>Audacity(mixing)>Wave Editor(tracking,fades,resample(izotope)/dither(mbit+)to 16 bit/44.1k)>XAct(FLAC 8,ffp,fix sbe)

Taped by: Andy Murray
Transferred by: Andy Murray

Dopapod and The Ghosts Of Jupiter also played

1 Set

length expanded size cdr WAVE problems fmt ratio filename
0:35.28 6239900 B --- -- ----- wav 1.0000 jauntee2013-02-22_mk41mk22sbmix_1644_d1t01.wav
4:46.02 50455148 B --- -- ----- wav 1.0000 jauntee2013-02-22_mk41mk22sbmix_1644_d1t02.wav
11:13.46 118825436 B --- -- ----- wav 1.0000 jauntee2013-02-22_mk41mk22sbmix_1644_d1t03.wav
3:49.25 40454444 B --- -- ----- wav 1.0000 jauntee2013-02-22_mk41mk22sbmix_1644_d1t04.wav
6:21.62 67354268 B --- -- ----- wav 1.0000 jauntee2013-02-22_mk41mk22sbmix_1644_d1t05.wav
10:01.73 106188140 B --- -- ----- wav 1.0000 jauntee2013-02-22_mk41mk22sbmix_1644_d1t06.wav
8:27.45 89540684 B --- -- ----- wav 1.0000 jauntee2013-02-22_mk41mk22sbmix_1644_d1t07.wav
4:01.39 42604172 B --- -- ----- wav 1.0000 jauntee2013-02-22_mk41mk22sbmix_1644_d1t08.wav
9:27.03 100025900 B --- -- ----- wav 1.0000 jauntee2013-02-22_mk41mk22sbmix_1644_d1t09.wav
58:44.23 621688092 B 1.0000 (9 files)

Reviews

There are no reviews yet. Be the first one to write a review.
PEOPLE ALSO FOUND
The Jauntee
by The Jauntee
38
0
0
Source: Schoeps mk41/sb>Sonosax SX-R4
The Jauntee
by The Jauntee
67
0
0
Source: Schoeps MK41/MK22>KC5>CMC6>Sonosax SX-R4 & SB>SX-R4
The Jauntee
by The Jauntee
67
0
0
Source: Schoeps mk41/sb>Sonosax SX-R4
The Jauntee
by The Jauntee
44
0
0
Source: Schoeps MK41/MK22>KC5>CMC6>Sonosax SX-R4 & SB>SX-R4
Source: Schoeps MK41>KC5>CMC6>Sonosax SX-M2>Apogee Mini-me(aes out,24bit/96khz)>COAX>Edirol R-44 & Soundboard>R-44
( 1 reviews )
Source: Schoeps Mk41>KC5>CMC6>Sonosax SX-R4(24bit/96khz) & Soundboard
Source: Schoeps MK41>KC5>CMC6>Sonosax SX-M2>Apogee Mini-me(aes out,24bit/96khz)>COAX>Edirol R-44 & Soundboard>R-44
Source: Schoeps MK41>KC5>CMC6>Sonosax SX-M2>Apogee Mini-me(aes out,24bit/96khz)>COAX>Edirol R-44 & Soundboard>R-44
Source: Schoeps MK41>KC5>CMC6>Sonosax SX-M2>Apogee Mini-me(aes out,24bit/96khz)>COAX>Edirol R-44
Otis Grove
by Otis Grove
63
0
0
Source: Schoeps MK4>KC5>CMC6>Sonosax SX-M2>Apogee Mini-me(aes out,24bit/96khz)>COAX>Edirol R-44